Trey Songz - Cant Be Friends [KingPinVideos]

Video > Music videos



SIZE: 79.45MiB






Description


<img src="http://img16.imageshack.us/img16/5553/treysongzcantbefreinds.png">


[img]http://img62.imageshack.us/img62/9532/treysongzcantbefreinds2.png[/img]

[code]General
Complete name : Trey Songz - Cant Be Friends[KingPinVideos].mpg
Format : MPEG-PS
File size : 79.4 MiB
Duration : 3mn 53s
Overall bit rate : 2 856 Kbps
Writing library : encoded by TMPGEnc 4.0 XPress Version. 4.7.4.299

Video
ID : 224 (0xE0)
Format : MPEG Video
Format version : Version 1
Format settings, BVOP : Yes
Format settings, Matrix : Default
Duration : 3mn 53s
Bit rate mode : Constant
Bit rate : 2 615 Kbps
Nominal bit rate : 2 700 Kbps
Width : 384 pixels
Height : 208 pixels
Display aspect ratio : 16:9
Frame rate : 29.970 fps
Resolution : 8 bits
Scan type : Progressive
Bits/(Pixel*Frame) : 1.092
Stream size : 72.7 MiB (92%)
Writing library : TMPGEnc XPress 4.7.4.299

Audio
ID : 192 (0xC0)
Format : MPEG Audio
Format version : Version 1
Format profile : Layer 2
Duration : 3mn 53s
Bit rate mode : Constant
Bit rate : 128 Kbps
Channel(s) : 2 channels
Sampling rate : 48.0 KHz
Stream size : 3.56 MiB (4%)[/code]


Comments





Tags


Can't Be Friends by Trey Songz - Music and Lyrics treysongz .comcant - be-friends Trey Songz is a Grammy-nominated, multi-faceted singer-songwriter, rapper, producer and actor. He was once praised by the late Atlantic Records founder, Ahmet Ertegun Trey Songz - " Can't Be Friends " [Official Video] - YouTube By TreySongzVideos · 4 min · 28,980,246 views · Added 9Sign in with your Google Account (YouTube, Google+, Gmail, Orkut, Picasa, or Chrome) to add TreySongzVideos 's video to your playlist. TREY SONGZ - CAN'T BE FRIENDS LYRICS - Directlyrics trey-songz-cant-be-friends -lyrics.html View the Trey Songz Can't Be Friends lyrics and music video. Look what this girl … did to me, She didn't cut me off from a good good love, She told me that those Videos of Trey Songz - Cant Be Friends [KingPinVideos] bing.comClick to view 3:50 Trey Songz - Can't Be Friends Dailymotion Click to view 4:01 Trey Songz : Can't be friends (2010) Dailymotion Click to view 3:53 视频: Trey Songz - Cant Be Friends youku Click to view Trey Songz - Can't Be Friends Wat TREY SONGZ - CAN'T BE FRIENDS LYRICS - Lyricsty.com trey-songz-cant-be-friends -lyrics.html 8 · Trey Songz Can't Be Friends lyrics was added to the site 10 Aug, 2010 and since that time has 35 hits and voted 4 times. Other popular Trey Songz lyrics Trey Songz - Can't Be Friends Lyrics - LYRICSMODE.com trey_songz.html {Verse 1} Look what this girl done did to me She done cut me off from a good good love She told me that those days were gone (gone, gone) TREY SONGZ LYRICS - Can't Be Friends treysongz cantbefriends .html Lyrics to " Can't Be Friends " song by TREY SONGZ : Look what this girl done did to me, She done cut me off from a good, good love. She told me that thTrey Songz – Can't Be Friends – Listen and discover music Trey + Songz Be+Friends Watch the video & listen to Trey Songz – Can't Be Friends for free. Can't Be Friends appears on the album Passion, Pain & Pleasure. " Can’t Be Friends " peaked Can't Be Friends Lyrics - Trey Songz - LyricsFreak trey+songz_​20885315.html Can't Be Friends Lyrics - {Verse 1} Look what this girl done did to me She done cut me off from a good good love She toldTrey Songz - Can`t Be Friends скачать Translate this page zaycev.netTrey Songz - Can`t Be Friends скачать бесплатно mp3 download скачать без регистрации Trey Songz - Can`t Be Friends mp3 Can't Be Friends - Trey Songz Videos treysongz .comcant - be-friends -0 Cover of Can't Be Friends by Trey Songz , with instrumental by OIMixtapes. the music is a little loud :( my apologies. Enjoy! Related searches for trey songz "can t" be friends Can't Be Friends Download Trey Can't Be Friends Trey Songz Heart Attack Trey Songz Just Friends Lyrics Trey Songz Love Faces Trey Songz Can't Be Friends Lyrics Trey Songz Can't Help but Wait Trey Songz Neighbors Know My Name Related searches Can't Be Friends Download Trey Can't Be Friends Trey Songz Heart Attack Trey Songz Just Friends Lyrics Trey Songz Love Faces Trey Songz Can't Be Friends Lyrics Trey Songz Can't Help but Wait Trey Songz Neighbors Know My Name
cde:QzpcIVBBUlNFXDIwM1x3NXpoemgzeC50eHQ=:cde